extratorrent - A Fan Made Alternative Login   |   Register
Important Information
Registrations are open now
-------------------------------------

Please click here to register with Extratorrent2 to recieve latest updates, add bookmarks and to post comments.

Friends
Friends

1) ProxyFix

Extratorrent2 > Categories > Movies > Hera Pheri (1976) Hindi 1080p HDRip x264 AAC.-.Link2download torrent


Browse Movies torrents

Hera Pheri (1976) Hindi 1080p HDRip x264 AAC.-.Link2download torrent


Download torrent: Download Hera Pheri (1976) Hindi 1080p HDRip x264 AAC.-.Link2download torrent Magnet link Bookmark Torrent: Hera Pheri (1976) Hindi 1080p HDRip x264 AAC.-.Link2download   Hera Pheri (1976) Hindi 1080p HDRip x264 AAC.-.Link2download torrent
Info hash: F2DD322AE4F3D2245DCE3C8F66660F2D38BD03EE
Category: Categories > Movies
Trackers:
View all torrent trackers >
Health:
 seeds: 5 ,  leechers: 25 |  Update >
Torrent language: Hindi Hindi
Total Size: 3.5 GB
Files List:
3    View torrent files >
Uploader:
link2downlod
Torrent added: December 25, 2017, 3:41 am
Users rating: ---, not rated. please login to rate.

Download Hera Pheri (1976) Hindi 1080p HDRip x264 AAC.-.Link2download torrent



Torrent Description




Format : Matroska
Format version : Version 4 / Version 2
File size : 3.53 GiB
Duration : 2 h 37 min
Overall bit rate : 3 209 kb/s
Encoded date : UTC 2017-12-23 17:09:01
Writing application : mkvmerge v7.0.0 ('Where We Going') 64bit built on Jun 9 2014 15:16:27
Writing library : libebml v1.3.0 + libmatroska v1.4.1

Video
ID : 1
Format : AVC
Format/Info : Advanced Video Codec
Format profile :
Format settings : CABAC / 4 Ref Frames
Format settings, CABAC : Yes
Format settings, RefFrames : 4 frames
Codec ID : V_MPEG4/ISO/AVC
Duration : 2 h 37 min
Bit rate : 3 082 kb/s
Width : 1 920 pixels
Height : 1 080 pixels
Display aspect ratio : 16:9
Frame rate mode : Constant
Frame rate : 23.976 (24000/1001) FPS
Color space : YUV
Chroma subsampling : 4:2:0
Bit depth : 8 bits
Scan type : Progressive
Bits/(Pixel*Frame) : 0.062
Stream size : 3.39 GiB (96%)
Writing library : x264 core 142 r2479 dd79a61
Default : Yes
Forced : No
Color range : Limited
Color primaries : BT.709
Transfer characteristics : BT.709
Matrix coefficients : BT.709

Audio
ID : 2
Format : AAC
Format/Info : Advanced Audio Codec
Format profile : LC
Codec ID : A_AAC-2
Duration : 2 h 37 min
Bit rate : 126 kb/s
Channel(s) : 2 channels
Channel positions : Front: L R
Sampling rate : 44.1 kHz
Frame rate : 43.066 FPS (1024 SPF)
Compression mode : Lossy
Delay relative to video : -83 ms
Stream size : 141 MiB (4%)
Default : Yes
Forced : No











Download Hera Pheri (1976) Hindi 1080p HDRip x264 AAC.-.Link2download torrent


Related Torrents

Added  Size  Health
Download Magnet link Browse Movies torrent Hera Pheri 1976 avi DVDRIP 1.23gB Musical Comedy Hindi DaXclusives in Movies - DVD, by
aapka1dost
6y 1.2 GB 0 1



Comments   (please login to add your comment!)

tierra     vietnam     bollywood hindi     brazzers     agents of s     2013 xxx     monique alexander nat turnher     10 4 2017     brahm     clark     mubarakan     zaltana     vehicle     mom black fucking diary     flac 2011     outlander s01e14     big butt style     my mom     potter hallows x265     american pie 2009     org     the heart wants what it wants     2017 subs     bollywood classic     


Home - Browse Torrents

Made with love by an Extratorrent Fan!