extratorrent - A Fan Made Alternative Login   |   Register
Important Information
Registrations are open now
-------------------------------------

Please click here to register with Extratorrent2 to recieve latest updates, add bookmarks and to post comments.

Friends
Friends

1) ProxyFix

Extratorrent2 > Categories > TV > Preacher S03E07 Hilter 1080p 5.1 - 2.0 x264 Phun Psyz torrent


Browse TV torrents

Preacher S03E07 Hilter 1080p 5.1 - 2.0 x264 Phun Psyz torrent


Download torrent: Download Preacher S03E07 Hilter 1080p 5.1 - 2.0 x264 Phun Psyz torrent Magnet link Bookmark Torrent: Preacher S03E07 Hilter 1080p 5.1 - 2.0 x264 Phun Psyz   Preacher S03E07 Hilter 1080p 5.1 - 2.0 x264 Phun Psyz torrent
Info hash: 9AEB98E35096B4F72651D9E036A6D33D78F270A2
Category: Categories > TV
Trackers:
View all torrent trackers >
Health:
 seeds: 8 ,  leechers: 9 |  Update >
Torrent language: English English
Total Size: 739.5 MB
Files List:
1    View torrent files >
Uploader:
PhunPsyz
Torrent added: August 24, 2018, 4:03 pm
Tags: Preacher, S03E07, 1080p, x264, Phun, Psyz
IMDB: http://www.imdb.com/title/tt8023462
Users rating: ---, not rated. please login to rate.

Download Preacher S03E07 Hilter 1080p 5.1 - 2.0 x264 Phun Psyz torrent



Torrent Description

www.imdb.com/title/tt8023462/?ref_=ttep_ep7

In order to advert the apocalypse, Jesse, Tulip, Gran'ma and Starr must work together. Cassidy learns to love Eccaarius but it comes at a price.

Source: Amzn



Format : MPEG-4
Format profile : Base Media / Version 2
Codec ID : mp42 (isom/iso2/avc1/mp41)
File size : 740 MiB
Duration : 44 min 44 s
Overall bit rate mode : Variable
Overall bit rate : 2 311 kb/s

Video
ID : 1
Format : AVC
Format/Info : Advanced Video Codec
Format profile :
Format settings : CABAC / 1 Ref Frames
Format settings, CABAC : Yes
Format settings, RefFrames : 1 frame
Codec ID : avc1
Codec ID/Info : Advanced Video Coding
Duration : 44 min 44 s
Bit rate : 1 825 kb/s
Width : 1 920 pixels
Height : 1 080 pixels
Display aspect ratio : 16:9
Frame rate mode : Variable
Frame rate : 23.976 (24000/1001) FPS
Minimum frame rate : 23.974 FPS
Maximum frame rate : 23.981 FPS
Color space : YUV
Chroma subsampling : 4:2:0
Bit depth : 8 bits
Scan type : Progressive
Bits/(Pixel*Frame) : 0.037
Stream size : 584 MiB (79%)
Writing library : x264 core 155 r2901 7d0ff22

Audio #1
ID : 2
Format : AC-3
Format/Info : Audio Coding 3
Format settings, Endianness : Big
Codec ID : ac-3
Duration : 44 min 43 s
Bit rate mode : Constant
Bit rate : 320 kb/s
Channel(s) : 6 channels
Channel positions : Front: L C R, Side: L R, LFE
Sampling rate : 48.0 kHz
Frame rate : 31.250 FPS (1536 SPF)
Bit depth : 16 bits
Compression mode : Lossy
Stream size : 102 MiB (14%)
Title : Surround / Surround
Language : English

Audio #2
ID : 3
Format : AAC
Format/Info : Advanced Audio Codec
Format profile : LC
Codec ID : mp4a-40-2
Duration : 44 min 43 s
Bit rate mode : Variable
Bit rate : 160 kb/s
Channel(s) : 2 channels
Channel positions : Front: L R
Sampling rate : 48.0 kHz
Frame rate : 46.875 FPS (1024 SPF)
Compression mode : Lossy
Stream size : 51.3 MiB (7%)
Title : Stereo / Stereo
Language : English

Text
Language : English
Default : Yes
Forced : No


Download Preacher S03E07 Hilter 1080p 5.1 - 2.0 x264 Phun Psyz torrent


Related Torrents


Comments   (please login to add your comment!)

mischa cross     pirates of caribbean dts     peaky blinders     1 2013     preacher     norton     matrimonio     239     the dark tower     hawaii five     720p bluray x264     collection 2017     sea     l a     cuckoo     rao     bad banks     elen million     get carter     petite ballerinas fucked     bluray songs hindi     kylie page 2017     orgasm     male     


Home - Browse Torrents

Made with love by an Extratorrent Fan!