extratorrent - A Fan Made Alternative Login   |   Register
Important Information
Registrations are open now
-------------------------------------

Please click here to register with Extratorrent2 to recieve latest updates, add bookmarks and to post comments.

Friends
Friends

1) ProxyFix

Extratorrent2 > Categories > Movies > Phir Hera Pheri 2006 Hindi 720p HDRip x264 Ac3 5.1 [TG] torrent


Browse Movies torrents

Phir Hera Pheri 2006 Hindi 720p HDRip x264 Ac3 5.1 [TG] torrent


Download torrent: Download Phir Hera Pheri 2006 Hindi 720p HDRip x264 Ac3 5.1 [TG] torrent Magnet link Bookmark Torrent: Phir Hera Pheri 2006 Hindi 720p HDRip x264 Ac3 5.1 [TG]   Phir Hera Pheri 2006 Hindi 720p HDRip x264 Ac3 5.1 [TG] torrent
Info hash: 06DC93D84C2F49F4224B3C21F11690CB2BCC0EB7
Category: Categories > Movies
Trackers:
View all torrent trackers >
Health:
 seeds: 0 ,  leechers: 1 |  Update >
Torrent language: Hindi Hindi
Total Size: 1.4 GB
Files List:
5    View torrent files >
Uploader:
rsy007
Torrent added: May 25, 2015, 6:13 am
Users rating: ---, not rated. please login to rate.

Download Phir Hera Pheri 2006 Hindi 720p HDRip x264 Ac3 5.1 [TG] torrent



Torrent Description

Phir Hera Pheri 2006 Hindi 720p HDRip x264 Ac3 5.1 [TG]






Storyline:

Babu Rao, Raju and Shyam, are living happily after having risen from rags to riches. Still, money brings the joy of riches and with it the greed to make more money - and so, with a don as an unknowing investor, Raju initiates a new game.





Genres: Comedy | Crime
Country: India
Language: Hindi
Release Date: 9 June 2006 (USA)
[color=blue]


[color=red]Media Information:






Complete name : Phir Hera Pheri 2006 Hindi 720p HDRip x264 Ac3 5.1 [TG]
Format : Matroska
Format version : Version 4 / Version 2
File size : 1.43 GiB
Duration : 2h 30mn
Overall bit rate : 1 364 Kbps
Movie name : RSY 007 TG
Encoded date : UTC 2014-11-25 06:37:33
Video
ID : 1
Format : AVC
Format/Info : Advanced Video Codec
Format profile :
Format settings, CABAC : Yes
Format settings, ReFrames : 4 frames
Codec ID : V_MPEG4/ISO/AVC
Duration : 2h 30mn
Bit rate : 1 200 Kbps
Width : 1 280 pixels
Height : 544 pixels
Display aspect ratio : 2.35:1
Frame rate mode : Constant
Frame rate : 29.970 fps
Color space : YUV
Chroma subsampling : 4:2:0
Bit depth : 8 bits
Scan type : Progressive
Bits/(Pixel*Frame) : 0.058
Stream size : 1.23 GiB (86%)
Title : RSY 007 TG
Writing library : x264 core 119


Audio
ID : 2
Format : AC-3
Format/Info : Audio Coding 3
Mode extension : CM (complete main)
Format settings, Endianness : Big
Codec ID : A_AC3
Duration : 2h 30mn
Bit rate mode : Constant
Bit rate : 160 Kbps
Channel(s) : 6 channels
Channel positions : Front: L C R, Side: L R, LFE
Sampling rate : 44.1 KHz
Bit depth : 16 bits
Compression mode : Lossy
Stream size : 172 MiB (12%)
Title : RSY 007 TG
Language : Hindi
Default : Yes
Forced : No
DURATION : 02:30:04.652000000









[color=blue]

[color=red]Screenshot:




Seedbox seeding 24x7 @ 1Gbps






Note : Please try to seed as much as you can since "sharing brings joy" !


Download Phir Hera Pheri 2006 Hindi 720p HDRip x264 Ac3 5.1 [TG] torrent


Related Torrents


Comments   (please login to add your comment!)


Home - Browse Torrents

Made with love by an Extratorrent Fan!