extratorrent - A Fan Made Alternative Login   |   Register
Important Information
Registrations are open now
-------------------------------------

Please click here to register with Extratorrent2 to recieve latest updates, add bookmarks and to post comments.

Friends
Friends

1) ProxyFix

Extratorrent2 > Categories > Movies > Hera Pheri (2000) WEBHD 720p Hindi H264 ACC - LatestHDMovies torrent


Browse Movies torrents

Hera Pheri (2000) WEBHD 720p Hindi H264 ACC - LatestHDMovies torrent


Download torrent: Download Hera Pheri (2000) WEBHD 720p Hindi H264 ACC  - LatestHDMovies torrent Magnet link Bookmark Torrent: Hera Pheri (2000) WEBHD 720p Hindi H264 ACC  - LatestHDMovies   Hera Pheri (2000) WEBHD 720p Hindi H264 ACC - LatestHDMovies torrent
Info hash: D9B689307B27BA3131E8F7DBE542DC7119154B26
Category: Categories > Movies
Trackers:
View all torrent trackers >
Health:
 seeds: 0 ,  leechers: 65 |  Update >
Torrent language: Hindi Hindi
Total Size: 1.3 GB
Files List:
1    View torrent files >
Uploader:
LHDM
Torrent added: March 27, 2018, 7:30 am
Tags: Hera, Pheri, 2000
Users rating: ---, not rated. please login to rate.

Download Hera Pheri (2000) WEBHD 720p Hindi H264 ACC  - LatestHDMovies torrent



Torrent Description






[[>>SAMPLE<<]]
http://openload.co/f/-EtPQUoqs3c/vlc-record-2018-03-26-18h46m29s-LatestHDMovies___TeamSHAHID-.mp4










General
Unique ID : 136032983165341633254270461374196146115 (0x6656FFE3D5EAFE67B793E3B82244DFC3)
Complete name : C:\Users\SHAH\Downloads\Video\Hera Pheri (2000) WEBHD 720p Hindi H264 ACC - LatestHDMovies.mkv
Format : Matroska
Format version : Version 4 / Version 2
File size : 1.31 GiB
Duration : 2 h 18 min
Overall bit rate : 1 348 kb/s
Movie name : LatestHDMovies | TeamSHAHID
Encoded date : UTC 2018-03-27 01:40:30
Writing application : mkvmerge v21.0.0 ('Tardigrades Will Inherit The Earth') 32-bit
Writing library : libebml v1.3.5 + libmatroska v1.4.8
Cover : Yes
Attachments : Cover.jpg

Video
ID : 1
Format : AVC
Format/Info : Advanced Video Codec
Format profile :
Format settings : CABAC / 5 Ref Frames
Format settings, CABAC : Yes
Format settings, ReFrames : 5 frames
Codec ID : V_MPEG4/ISO/AVC
Duration : 2 h 18 min
Bit rate : 1 216 kb/s
Width : 1 270 pixels
Height : 718 pixels
Display aspect ratio : 16:9
Frame rate mode : Constant
Frame rate : 25.000 FPS
Color space : YUV
Chroma subsampling : 4:2:0
Bit depth : 8 bits
Scan type : Progressive
Bits/(Pixel*Frame) : 0.053
Stream size : 1.18 GiB (90%)
Title : LatestHDMovies - TeamSHAHID
Writing library : x264 core 148 r2643 5c65704
Encoding settings : cabac=1 / ref=5 / deblock=1:0:0 / analyse=0x3:0x113 / me=hex / subme=7 / psy=1 / psy_rd=1.00:0.00 / mixed_ref=1 / me_range=16 / chroma_me=1 / trellis=1 / 8x8dct=1 / cqm=0 / deadzone=21,11 / fast_pskip=1 / chroma_qp_offset=-2 / threads=8 / lookahead_threads=8 / sliced_threads=1 / slices=8 / nr=0 / decimate=1 / interlaced=0 / bluray_compat=0 / constrained_intra=0 / bframes=0 / weightp=2 / keyint=250 / keyint_min=25 / scenecut=40 / intra_refresh=0 / rc=2pass / mbtree=0 / bitrate=1216 / ratetol=1.0 / qcomp=0.60 / qpmin=0 / qpmax=69 / qpstep=4 / cplxblur=20.0 / qblur=0.5 / ip_ratio=1.40 / aq=1:1.00
Default : Yes
Forced : No

Audio
ID : 2
Format : AAC
Format/Info : Advanced Audio Codec
Format profile : LC
Codec ID : A_AAC-2
Duration : 2 h 18 min
Bit rate : 128 kb/s
Channel(s) : 2 channels
Channel positions : Front: L R
Sampling rate : 48.0 kHz
Frame rate : 46.875 FPS (1024 SPF)
Compression mode : Lossy
Delay relative to video : -43 ms
Stream size : 127 MiB (9%)
Title : LatestHDMovies - TeamSHAHID
Default : Yes
Forced : No





Download Hera Pheri (2000) WEBHD 720p Hindi H264 ACC  - LatestHDMovies torrent


Related Torrents


Comments   (please login to add your comment!)


Home - Browse Torrents

Made with love by an Extratorrent Fan!