extratorrent - A Fan Made Alternative Login   |   Register
Important Information
Registrations are open now
-------------------------------------

Please click here to register with Extratorrent2 to recieve latest updates, add bookmarks and to post comments.

Friends
Friends

1) ProxyFix

Extratorrent2 > Categories > Movies > Sabse Badi Hera Pheri (2007)_DvD RiP_With Hindi Audio_x264,AAC_(shilpa143)_[PDR] torrent


Browse Movies torrents

Sabse Badi Hera Pheri (2007)_DvD RiP_With Hindi Audio_x264,AAC_(shilpa143)_[PDR] torrent


Download torrent: Download Sabse Badi Hera Pheri (2007)_DvD RiP_With Hindi Audio_x264,AAC_(shilpa143)_[PDR] torrent Magnet link Bookmark Torrent: Sabse Badi Hera Pheri (2007)_DvD RiP_With Hindi Audio_x264,AAC_(shilpa143)_[PDR]   Sabse Badi Hera Pheri (2007)_DvD RiP_With Hindi Audio_x264,AAC_(shilpa143)_[PDR] torrent
Info hash: 50D96BA91188130F9C2669A8E9A74DC14A24257F
Category: Categories > Movies
Trackers:
View all torrent trackers >
Health:
 seeds: 0 ,  leechers: 2 |  Update >
Torrent language: Hindi Hindi
Total Size: 653.9 MB
Files List:
19    View torrent files >
Uploader:
shilpa143
Torrent added: May 24, 2014, 10:30 pm
Users rating: ---, not rated. please login to rate.

Download Sabse Badi Hera Pheri (2007)_DvD RiP_With Hindi Audio_x264,AAC_(shilpa143)_[PDR] torrent



Torrent Description




Imdb Link :- NA




Language: Hindi
Genre: Comedy
Run Time - 1 Hr. 57 Min
Cast: Vishnu Manchu, Genelia D'Souza, Srihari, Brahmanandam
Director: Sreenu Vaitla
Babloo (Vishnu Manchu) likes to have fun and is always getting in trouble. So his father Narayana (Chandra Mohan) gets him a job with Shanker Goud (Srihari). Shanker Goud and Bhallu are rivals and Bhallu is determined to kill Shanker Goud's sister Pooja (Genelia D'Souza). Babloo falls in love with Pooja but Shanker is planning an arranged marriage for her with Ajay (Akash). Babloo and Pooja elope to get married





General
Complete name : Sabse Badi Hera Pheri.mp4
Format : MPEG-4
Format profile : Base Media / Version 2
Codec ID : mp42
File size : 642 MiB
Duration : 1h 56mn
Overall bit rate mode : Variable
Overall bit rate : 773 Kbps
Encoded date : UTC 2013-12-01 08:01:35
Tagged date : UTC 2013-12-01 17:24:49
Writing application : HandBrake 0.9.9 2013052900

Video
ID : 1
Format : AVC
Format/Info : Advanced Video Codec
Format profile :
Format settings, CABAC : Yes
Format settings, ReFrames : 8 frames
Codec ID : avc1
Codec ID/Info : Advanced Video Coding
Duration : 1h 56mn
Bit rate mode : Variable
Bit rate : 641 Kbps
Width : 656 pixels
Height : 288 pixels
Display aspect ratio : 2.25:1
Frame rate mode : Variable
Frame rate : 25.000 fps
Minimum frame rate : 14.286 fps
Maximum frame rate : 25.000 fps
Color space : YUV
Chroma subsampling : 4:2:0
Bit depth : 8 bits
Scan type : Progressive
Bits/(Pixel*Frame) : 0.136
Stream size : 533 MiB (83%)
Writing library : x264 core 130 r2273 b3065e6


Audio

Language : Hindi
ID : 2
Format : AAC
Format/Info : Advanced Audio Codec
Format profile : LC
Codec ID : 40
Duration : 1h 56mn
Bit rate mode : Variable
Bit rate : 128 Kbps
Maximum bit rate : 215 Kbps
Channel count : 2 channels
Channel positions : Front: L R
Sampling rate : 48.0 KHz
Compression mode : Lossy
Delay relative to video : 140ms
Stream size : 106 MiB (17%)
















Download Sabse Badi Hera Pheri (2007)_DvD RiP_With Hindi Audio_x264,AAC_(shilpa143)_[PDR] torrent


Related Torrents


Comments   (please login to add your comment!)


Home - Browse Torrents

Made with love by an Extratorrent Fan!